#TITLE:Melt;
#SUBTITLE:Vocaloid Songs - [N]hok[Q] Simfile;
#ARTIST:Hatsune Miku;
#TITLETRANSLIT:;
#SUBTITLETRANSLIT:;
#ARTISTTRANSLIT:;
#CREDIT:[N]hok[Q];
#BANNER:Melt-bn.png;
#BACKGROUND:Melt-bg.png;
#LYRICSPATH:;
#CDTITLE:Melt-cd.png;
#MUSIC:Melt.mp3;
#OFFSET:0.000;
#SAMPLESTART:72.177;
#SAMPLELENGTH:16.677;
#SELECTABLE:YES;
#DISPLAYBPM:170.000;
#BPMS:0.000=170.002,5.000=169.992,6.000=170.002,11.000=169.992,12.000=170.002,16.000=169.992,17.000=170.002,22.000=169.992,23.000=170.002,27.000=169.992,28.000=170.002,32.000=169.992,33.000=170.002,38.000=169.992,39.000=170.002,43.000=169.992,44.000=170.002,48.000=169.992,49.000=170.002,54.000=169.992,55.000=170.002,59.000=169.992,60.000=170.002,66.000=169.992,67.000=170.002,74.000=169.992,75.000=170.002,82.000=169.992,83.000=170.002,90.000=169.992,91.000=170.002,98.000=169.992,99.000=170.002,106.000=169.992,107.000=170.002,114.000=169.992,115.000=170.002,122.000=169.992,123.000=170.002,126.000=169.992,127.000=170.002,130.000=169.992,131.000=170.002,132.000=113.439,132.250=339.143,132.500=169.992,133.000=170.002,134.000=169.992,135.000=170.002,138.000=169.992,139.000=170.002,142.000=169.992,143.000=170.002,146.000=169.992,147.000=170.002,150.000=169.992,151.000=170.002,154.000=169.992,155.000=170.002,158.000=169.992,159.000=170.002,162.000=169.992,163.000=170.002,166.000=169.992,167.000=170.002,169.000=113.439,169.250=339.143,169.500=169.992,170.000=113.439,170.250=338.983,170.500=169.992,171.000=113.439,171.250=339.143,171.500=169.992,172.000=113.439,172.250=339.143,172.500=169.992,173.000=170.002,174.000=169.992,175.000=170.002,178.000=169.992,179.000=170.002,182.000=169.992,183.000=170.002,186.000=169.992,187.000=170.002,190.000=169.992,191.000=170.002,194.000=169.992,195.000=170.002,198.000=169.992,199.000=170.002,202.000=169.992,203.000=170.002,204.000=113.439,204.250=339.143,204.500=169.992,205.000=170.002,206.000=169.992,207.000=170.002,210.000=169.992,211.000=170.002,214.000=169.992,215.000=170.002,218.000=169.992,219.000=170.002,222.000=169.992,223.000=170.002,226.000=169.992,227.000=170.002,230.000=169.992,231.000=170.002,234.000=169.992,235.000=170.002,238.000=169.992,239.000=170.002,242.000=169.992,243.000=170.002,246.000=169.992,247.000=170.002,287.000=56.667,288.000=170.002,296.000=339.143,296.500=113.430,297.000=170.002;
#STOPS:;
#BGCHANGES:0.000=Hatsune Miku - Melt.avi=1.000=1=1=0,
297.000=Melt-bg.png=1.000=0=0=1,
99999=-nosongbg-=1.000=0=0=0 // don't automatically add -songbackground-
;
// cache tags:
#FIRSTBEAT:3.250;
#LASTBEAT:297.000;
#SONGFILENAME:Songs/SDO pack 5/Melt/Melt.sm;
#HASMUSIC:1;
#HASBANNER:1;
#MUSICLENGTH:106.491;
// end cache tags

//---------------dance-single - ----------------
#NOTES:
     dance-single:
     :
     Hard:
     16:
     1.000,1.000,1.000,0.423,0.263,559.000,330.000,45.000,0.000,82.000:
0000
0000
0000
0000
0000
0000
0000
0000
0000
0000
0000
0000
0000
0200
0000
0000
,
0000
0310
0000
0000
1000
0100
0000
0001
,
0000
0001
0000
0001
0000
2001
0000
0000
,
0000
3200
0000
0000
0001
0310
0000
0100
,
0000
0000
0010
0000
0000
0000
0001
0010
0100
1000
0010
0000
0010
0000
0000
0000
,
0010
0101
1000
0100
1010
0110
0001
0011
,
1000
0000
0110
0000
0010
0000
0110
0000
0001
0000
0110
0000
1000
0100
0001
0000
,
0011
2001
0010
0100
0000
0001
3010
1000
,
0000
0012
1000
0200
0000
0000
0303
0000
,
0000
1101
0110
0011
0100
0110
1001
0011
,
0100
0011
0110
1001
0100
0011
1010
0110
,
0001
1100
0011
0110
0100
1100
0110
0011
,
0100
0000
0110
0000
0011
0000
0110
0000
1000
0010
0110
0000
1001
0000
0011
0000
,
0100
0000
2011
0000
0000
0000
0000
3000
0110
0000
0011
0000
0000
0000
0110
0000
,
1001
0000
2010
0000
0011
0000
0110
0000
3110
0000
1002
0000
1000
0010
1010
0000
,
0113
0210
1001
1011
0000
1010
1001
1010
,
0011
0000
1021
0000
1301
0000
1100
0000
0101
1000
0100
0001
0100
0000
0100
0001
,
0130
1101
0000
0110
1000
0101
0010
0101
,
1000
0000
0110
0000
0001
0000
0110
0000
1000
0001
1010
0000
0100
0000
1010
0000
,
0010
0110
0001
0110
1001
0110
0001
1010
,
0001
0000
0110
0000
1000
0000
0110
0000
1000
0001
0011
0000
1000
0000
0101
0000
,
0010
2001
0100
3011
0100
1002
0010
1103
,
0001
0000
0210
0000
0001
0000
1310
0000
0010
1000
0120
0000
1000
0001
0101
0000
,
1000
0201
1000
1001
0000
1001
0001
1001
,
1331
0000
1001
0000
0110
0000
1001
0000
0001
0001
1001
0000
0100
0000
0011
0000
,
0100
1011
0100
0011
0100
1010
0001
0110
,
1000
0000
0101
0000
1010
0000
0101
0000
1000
1000
0110
0000
0001
0000
0110
0000
,
1000
1010
0010
0101
0110
1100
0010
0101
,
0010
0000
0110
0000
1000
0000
0110
0000
1000
0100
0010
0001
1000
0000
0110
0000
,
0101
0000
2001
0000
0001
0000
3110
0000
0100
0100
0012
0000
1000
0000
0113
0000
,
0001
0000
1020
0000
0100
0000
0131
0000
0010
0000
0201
0000
0001
0001
1310
0000
,
0110
1002
0110
1000
0000
0110
0000
1103
,
0110
0000
0010
0000
0001
0001
1010
0000
0101
0000
0110
0000
1001
0000
1002
0000
,
0000
1113
0000
0010
0100
0101
0000
1000
,
0010
0101
0101
0000
0110
1001
0000
0011
,
0110
1010
0000
0000
0110
1001
0000
0000
,
0011
1100
0011
1000
0101
0011
0000
1001
,
0000
0110
0000
0011
1000
0101
0000
0101
,
0010
0000
0110
0001
0001
0000
0110
0000
1001
0000
0110
0000
0000
0000
0011
0000
,
0110
2001
0000
0110
0000
0101
0000
3110
,
0001
0102
1010
0203
0010
0321
0000
1032
,
0000
0213
0000
0311
0110
1101
0000
0110
,
0101
0200
0000
0002
0000
0320
0000
0233
,
0000
1311
0110
0011
1000
0110
1001
0110
,
0001
0000
0110
0000
1001
0000
0011
0000
1000
0001
0110
0000
0011
0000
0110
0000
,
0001
0110
1001
0011
0100
1001
0110
1100
,
0001
0000
0110
0000
1001
0001
0101
0000
0010
0000
0110
0000
0001
0000
0110
0000
,
0011
1110
0011
0110
1000
0110
0011
1100
,
0010
0000
0101
0000
0110
0000
1001
0000
0001
0000
1010
1000
1001
0001
0011
0000
,
0100
0000
0011
0000
0110
0000
0011
0000
0000
0000
0011
0000
1000
1000
0110
0000
,
0001
0000
0110
0000
1001
0000
0110
0000
0011
0100
1100
0000
0001
0000
0102
0000
,
0000
1103
0110
0011
0100
0011
0110
1001
,
0010
0000
0101
0000
0011
0000
0110
0000
0100
0000
0110
0001
1001
0000
0011
0000
,
0100
0110
0011
1001
0200
0011
1010
0311
,
1000
0000
0110
0000
0011
1000
0021
0000
0000
0000
0200
0000
0000
0000
0302
0000
,
0000
1133
0100
0011
0110
1000
0100
0011
,
0110
1011
0100
0110
0011
0100
0010
0101
,
1000
0011
1000
0120
0001
1001
1001
1001
,
1001
0000
1001
0000
1031
0001
1010
0000
0110
1000
0011
0000
1000
0010
1100
0010
,
0001
0010
1101
0000
0000
0000
0110
0000
0000
0000
1001
0000
0000
0000
0110
0000
,
0000
0011
0000
0110
0000
1001
0000
0110
,
0000
0011
0000
0110
0011
1001
0110
0110
,
1001
0011
0110
0110
1001
1001
0110
0110
,
0000
1101
0110
0011
0100
0110
1001
0011
,
0100
0011
0110
1001
0100
0011
1010
0110
,
0001
1100
0011
0110
0100
1100
0110
0011
,
0100
0000
0110
0000
0011
0000
0110
0000
1000
0010
0110
0000
1001
0000
0011
0000
,
0100
0000
2011
0000
0000
0000
0000
3000
0110
0000
0011
0000
0000
0000
0110
0000
,
1001
0000
2010
0000
0011
0000
0110
0000
3110
0000
1002
0000
1000
0010
1010
0000
,
0113
0210
1001
1011
0000
0011
1010
0011
,
1010
0000
1021
0000
1301
0000
1100
0001
0100
0001
0100
1000
0100
1000
0100
1000
,
0130
0010
0001
0010
0100
1000
0100
0010
0001
0010
0200
0000
0000
0000
0000
0000
,
0000
1021
0000
0000
0000
0000
0000
0000
0000
0300
0031
1000
0001
1000
0001
1000
,
0001
1000
0001
0100
0010
0100
0010
0100
0010
0100
0010
0100
0010
0000
0010
0000
,
0000
0110
0000
0000
,
0000
0000
0000
0000
,
0000
0000
0000
0000
,
0000
0000
0000
0000
,
0000
0000
0000
0000
;

//---------------dance-solo - ----------------
#NOTES:
     dance-solo:
     :
     Hard:
     19:
     1.000,1.000,1.000,0.535,0.254,558.000,337.000,57.000,0.000,106.000:
000000
000000
000000
000000
000000
000000
000000
000000
000000
000000
000000
000000
000000
002000
000000
000000
,
000000
103010
000000
000000
001000
000010
000000
100000
,
000000
000001
000000
000001
000000
102000
000000
000000
,
000000
003020
000000
000000
010000
000031
000000
000010
,
000000
000000
000001
000000
000000
000000
100000
000001
000010
001000
010000
000000
010000
000000
000000
000000
,
000001
020010
001000
000010
001001
030201
100000
100001
,
001000
000000
020301
000000
000100
000000
000011
000000
100000
000000
030201
000000
010000
000010
000001
000000
,
010010
102300
000001
000010
000000
100000
003100
000001
,
000000
200001
000100
000020
000000
000000
300030
000000
,
000000
101010
001010
100001
010000
000011
101000
000101
,
000010
101000
000011
101000
000010
001001
001001
000011
,
000100
001010
100001
000011
010000
001010
000011
001100
,
010000
000000
001100
000000
100100
000000
010010
000000
000100
000100
100001
000000
001010
000000
100001
000000
,
000010
000000
012010
000000
000000
000000
000000
003000
001010
000000
010110
000000
000000
000000
001010
000000
,
101000
000000
002001
000000
000101
000000
100100
000000
003101
000000
200100
000000
001000
000001
021001
000000
,
301010
030021
010100
010101
000000
001001
101000
001001
,
100001
000000
101002
000000
101030
000000
001010
000000
100010
001000
100000
001000
000010
000000
000100
100000
,
000013
011010
000000
000011
001000
100010
000001
100010
,
001000
000000
000011
000000
100000
000000
000011
000000
100000
100000
001100
000000
010000
000000
001001
000000
,
010000
001100
000100
000011
101000
000011
000010
001100
,
100000
000000
010100
000000
001000
000000
000101
000000
000100
010000
001001
000000
001000
000000
100010
000000
,
000001
002100
000010
003101
000010
200100
000010
301010
,
000100
000000
000021
000000
001000
000000
001031
000000
100000
000100
000012
000000
010000
000100
100010
000000
,
001000
001200
001000
101000
000000
101000
000000
101000
,
010303
000000
001010
000000
000011
000000
101000
000000
000100
000100
010010
000000
000010
000000
001001
000000
,
000010
101001
001000
100001
001000
001001
000010
000011
,
001000
000000
100010
000000
001001
000000
100010
000000
001000
001000
000011
000000
100000
000000
000011
000000
,
001000
001001
000100
101000
010100
001010
000100
010010
,
000001
000000
000011
000000
001000
000000
100100
000000
100000
010000
000100
000001
001000
000000
000011
000000
,
100010
000000
002100
000000
010000
000000
003011
000000
100000
100000
200100
000000
001000
000000
300011
000000
,
000010
000000
001002
000000
000010
000000
100013
000000
000001
000000
100020
000000
001000
001000
010031
000000
,
000011
201000
000010
001100
000000
000011
000000
301010
,
000011
000000
000001
000000
001000
001000
001001
000000
100010
000000
000011
000000
101000
000000
201000
000000
,
000000
301011
000000
000001
000010
010010
000000
001000
,
000001
100010
001010
000000
000011
101000
000000
100001
,
000011
001001
000000
010000
000011
101000
000000
000100
,
100001
000110
100001
001000
001010
000101
000000
101000
,
000000
001010
000000
000101
001000
100010
000000
100010
,
000001
000000
000011
001000
001000
000000
000011
000000
101000
000000
000011
000000
000000
000000
100001
000000
,
000011
102000
000000
000011
000000
100010
000000
003011
,
100000
200010
001100
300020
001000
100032
000000
201003
,
000000
300021
000000
001130
000011
101010
000000
000011
,
100010
002020
000000
200000
000000
003032
000000
300223
,
000000
101331
001100
000101
010000
000101
101000
000011
,
100000
000000
000011
000000
101000
000000
000101
000000
100000
001000
000011
000000
100001
000000
000011
000000
,
100000
000011
101000
000101
000010
101000
000101
001010
,
100000
000000
000011
000000
101000
100000
100010
000000
001000
000000
000011
000000
100000
000000
000011
000000
,
100001
010101
000101
001100
000010
001100
010010
000011
,
000001
000000
001010
000000
000011
000000
101000
000000
100000
000000
001001
000100
010010
001000
100100
000000
,
000010
000000
000101
000000
001001
000000
000101
000000
000000
000000
001100
000000
001000
001000
000011
000000
,
000100
000000
000011
000000
101000
000000
000011
000000
100001
000010
001010
000000
100000
000000
020010
000000
,
000000
131010
000011
010001
000010
100001
000011
101000
,
001000
000000
200100
000000
000101
000000
011000
000000
000100
000000
300201
001000
101000
000000
010001
000000
,
000010
020310
000101
101000
030020
001001
001100
100031
,
001000
000000
000011
000000
100001
001000
000102
000000
000000
000000
001020
000000
000000
000000
201030
000000
,
000000
310113
000010
010001
000011
001000
000010
100001
,
000011
101001
001000
000101
100001
000010
000100
100010
,
001000
100001
001000
000012
100000
101000
001010
101000
,
001010
000000
001100
000000
110003
000100
000011
000000
000011
001000
100001
000000
010000
000100
001010
000001
,
000100
000001
101010
000000
000000
000000
000011
000000
000000
000000
101000
000000
000000
000000
000011
000000
,
000000
100001
000000
000011
000000
001010
000000
000011
,
000000
000101
000000
000011
100001
101000
000011
000011
,
101000
100001
000011
000011
101000
101000
000011
000011
,
000000
101010
001010
100001
010000
000011
101000
000101
,
000010
101000
000011
101000
000010
001001
001001
000011
,
000100
001010
100001
000011
010000
001010
000011
001100
,
010000
000000
001100
000000
100100
000000
010010
000000
000100
000100
100001
000000
001010
000000
100001
000000
,
000010
000000
012010
000000
000000
000000
000000
003000
001010
000000
010110
000000
000000
000000
001010
000000
,
101000
000000
002001
000000
000101
000000
100100
000000
003101
000000
200100
000000
001000
000001
021001
000000
,
301010
030021
010100
010101
000000
001001
101000
001001
,
100001
000000
101002
000000
101030
000000
001010
000000
100010
001000
100000
001000
000010
000000
000100
100000
,
000013
000100
101010
010000
000100
000001
000100
001000
100000
001000
000220
000000
000000
000000
000000
000000
,
000000
101302
000000
000000
000000
000000
000000
000000
000000
000030
000103
001000
000100
001000
000100
001000
,
000100
001000
000100
001000
000100
000010
001000
000010
001000
000010
001000
000010
001000
000000
001000
000000
,
000000
010010
000000
000000
,
000000
000000
000000
000000
,
000000
000000
000000
000000
,
000000
000000
000000
000000
,
000000
000000
000000
000000
;
